http://www.imdb.com/title/tt0146316/

Titulo original Lara Croft: Tomb Raider
Ano 2001
Duracion 105 min.
Pais Estados Unidos
Director Simon West
Guion Patrick Massett & John Zinman (Argumento: Sara B. Cooper, Mike Webb, Michael Colleary)
Musica Graeme Revell
Fotografia Peter Menzies Jr.
Reparto Angelina Jolie, Jon Voight, Iain Glen, Noah Taylor, Daniel Craig, Leslie Phillips, Mark Collie, Chris Barrie
Productora Paramount Pictures / Mutual Film Company
Genero Aventuras. Accion. Fantastico | Videojuego
Sinopsis Miembro de una rica familia aristocratica britanica, Lara Croft se dedica a la busqueda de tesoros de valor arqueologico al igual que su difunto padre. Experta en la lucha cuerpo a cuerpo, en armas y dominio de varios idiomas, emprendera la busqueda del "triangulo de la luz", un antiguo talisman que permite a quien lo posea dominar el tiempo


Complete name : Tomb Raider 1 (2001) 1080p Dual.mkv
Format : Matroska
Format version : Version 2
File size : 2.81 GiB
Duration : 1h 40mn
Overall bit rate : 4 009 Kbps
Movie name : Lara Croft: Tomb Raider [2001][1080p Dual]
Encoded date : UTC 2013-12-12 16:41:14
Writing application : mkvmerge v5.7.0 ('The Whirlwind') built on Jul 8 2012 20:08:51
Writing library : libebml v1.2.3 + libmatroska v1.3.0
Video
ID : 1
Format : AVC
Format/Info : Advanced Video Codec
Format profile : Main@L4.0
Format settings, CABAC : Yes
Format settings, ReFrames : 4 frames
Muxing mode : Header stripping
Codec ID : V_MPEG4/ISO/AVC
Duration : 1h 40mn
Bit rate : 3 131 Kbps
Width : 1 920 pixels
Height : 1 080 pixels
Display aspect ratio : 16:9
Frame rate mode : Constant
Frame rate : 23.976 fps
Color space : YUV
Chroma subsampling : 4:2:0
Bit depth : 8 bits
Scan type : Progressive
Bits/(Pixel*Frame) : 0.063
Stream size : 2.13 GiB (76%)
Writing library : x264 core 130 r2273 b3065e6
Default : Yes
Forced : No
Color primaries : BT.709
Transfer characteristics : BT.709
Matrix coefficients : BT.709
Audio #1
ID : 2
Format : AC-3
Format/Info : Audio Coding 3
Mode extension : CM (complete main)
Format settings, Endianness : Big
Muxing mode : Header stripping
Codec ID : A_AC3
Duration : 1h 40mn
Bit rate mode : Constant
Bit rate : 448 Kbps
Channel count : 6 channels
Channel positions : Front: L C R, Side: L R, LFE
Sampling rate : 48.0 KHz
Bit depth : 16 bits
Compression mode : Lossy
Stream size : 322 MiB (11%)
Title : Espanol Latino
Default : Yes
Forced : No
Audio #2
ID : 3
Format : AC-3
Format/Info : Audio Coding 3
Mode extension : CM (complete main)
Format settings, Endianness : Big
Muxing mode : Header stripping
Codec ID : A_AC3
Duration : 1h 40mn
Bit rate mode : Constant
Bit rate : 448 Kbps
Channel count : 6 channels
Channel positions : Front: L C R, Side: L R, LFE
Sampling rate : 48.0 KHz
Bit depth : 16 bits
Compression mode : Lossy
Stream size : 322 MiB (11%)
Title : Ingles
Default : No
Forced : No
Text #1
ID : 4
Format : UTF-8
Codec ID : S_TEXT/UTF8
Codec ID/Info : UTF-8 Plain Text
Default : Yes
Forced : No
Text #2
ID : 5
Format : VobSub
Muxing mode : zlib
Codec ID : S_VOBSUB
Codec ID/Info : The same subtitle format used on DVDs
Title : Subtitulos Espanol
Default : No
Forced : No













http://www.uploadable.ch/file/kqsPJY...1hd.part01.rar
http://www.uploadable.ch/file/kbNTXJ...1hd.part02.rar
http://www.uploadable.ch/file/YmUmGB...1hd.part03.rar
http://www.uploadable.ch/file/ucx6hJ...1hd.part04.rar
http://www.uploadable.ch/file/bpvhJ9...1hd.part05.rar
http://www.uploadable.ch/file/XZS88J...1hd.part06.rar
http://www.uploadable.ch/file/5AyUd4...1hd.part07.rar
http://www.uploadable.ch/file/u78ery...1hd.part08.rar
http://www.uploadable.ch/file/RRZys4...1hd.part09.rar
http://www.uploadable.ch/file/vGG3Hp...1hd.part10.rar
http://www.uploadable.ch/file/xCpGSW...1hd.part11.rar
http://www.uploadable.ch/file/9DZ6ap...1hd.part12.rar