Titulo original Thor: The Dark World (Thor 2)
Ano 2013
Duracion 112 min.
Pais Estados Unidos
Director Alan Taylor
Guion Christopher Yost, Christopher Markus, Stephen McFeely, Robert Rodat, Don Payne (Comic: Jack Kirby, Stan Lee, Larry Lieber)
Musica Brian Tyler
Fotografia Kramer Morgenthau
Reparto Chris Hemsworth, Natalie Portman, Tom Hiddleston, Anthony Hopkins, Christopher Eccleston, Kat Dennings, Jaimie Alexander, Idris Elba, Rene Russo, Stellan Skarsgård, Jonathan Howard, Adewale Akinnuoye-Agbaje, Ray Stevenson, Zachary Levi, Chris ODowd, Tadanobu Asano, Alice Krige, Tony Curran, Andrew Crayford, Clive Russell, Benicio del Toro
Productora Marvel Entertainment / Marvel Studios
Genero Fantastico. Accion. Aventuras | Mitologia. Superheroes. Comic. Marvel Comics. Secuela. 3-D
Sinopsis Thor lucha por restablecer el orden en el cosmos, pero una antigua raza liderada por el vengativo Malekith regresa con el proposito de volver a sumir el universo en la oscuridad. Se trata de un villano con el que ni siquiera Odin y Asgard se atreven a enfrentarse; por esa razon, Thor tendra que emprender un viaje muy peligroso, durante el cual se reunira con Jane Foster y la obligara a sacrificarlo todo para salvar el mundo.


General
Thor 2 (2013) [3D OU].mkv
Format : Matroska
Format version : Version 4 / Version 2
File size : 3.17 GiB
Duration : 1h 52mn
Overall bit rate : 4 047 Kbps
Movie name : Thor 2 (2013) [3D OU]
Encoded date : UTC 2014-02-07 14:57:32
Writing application : mkvmerge v6.0.0 (Coming Up For Air) built on Jan 20 2013 09:52:00
Writing library : libebml v1.3.0 + libmatroska v1.4.0
Video
ID : 1
Format : AVC
Format/Info : Advanced Video Codec
Format profile : Main@L4.0
Format settings, CABAC : Yes
Format settings, ReFrames : 4 frames
Format settings, GOP : M=1, N=3
Codec ID : V_MPEG4/ISO/AVC
Duration : 1h 52mn
Bit rate : 3 300 Kbps
Width : 1 920 pixels
Height : 1 080 pixels
Display aspect ratio : 16:9
Frame rate mode : Constant
Frame rate : 23.976 fps
Color space : YUV
Chroma subsampling : 4:2:0
Bit depth : 8 bits
Scan type : Progressive
Bits/(Pixel*Frame) : 0.066
Stream size : 2.50 GiB (79%)
Writing library : x264 core 130 r2273 b3065e6
Default : Yes
Forced : No
Color primaries : BT.709
Transfer characteristics : BT.709
Matrix coefficients : BT.709
Audio #1
ID : 2
Format : AC-3
Format/Info : Audio Coding 3
Mode extension : CM (complete main)
Format settings, Endianness : Big
Codec ID : A_AC3
Duration : 1h 52mn
Bit rate mode : Constant
Bit rate : 448 Kbps
Channel count : 6 channels
Channel positions : Front: L C R, Side: L R, LFE
Sampling rate : 48.0 KHz
Bit depth : 16 bits
Compression mode : Lossy
Delay relative to video : 24ms
Stream size : 359 MiB (11%)
Title : spanish
Default : Yes
Forced : No
Audio #2
ID : 3
Format : AC-3
Format/Info : Audio Coding 3
Mode extension : CM (complete main)
Format settings, Endianness : Big
Codec ID : A_AC3
Duration : 1h 52mn
Bit rate mode : Constant
Bit rate : 320 Kbps
Channel count : 6 channels
Channel positions : Front: L C R, Side: L R, LFE
Sampling rate : 44.1 KHz
Bit depth : 16 bits
Compression mode : Lossy
Stream size : 256 MiB (8%)
Title : english
Default : No
Forced : No
Text #1
ID : 4
Format : UTF-8
Codec ID : S_TEXT/UTF8
Codec ID/Info : UTF-8 Plain Text
Title : spanish
Default : No
Forced : No
Text #2
ID : 5
Format : UTF-8
Codec ID : S_TEXT/UTF8
Codec ID/Info : UTF-8 Plain Text
Title : english
Default : No
Forced : No
Text #3
ID : 6
Format : UTF-8
Codec ID : S_TEXT/UTF8
Codec ID/Info : UTF-8 Plain Text
Default : Yes
Forced : No










http://www.uploadable.ch/file/pXVwSg...gdf.part01.rar
http://www.uploadable.ch/file/FTKz54...gdf.part02.rar
http://www.uploadable.ch/file/d8VqjW...gdf.part03.rar
http://www.uploadable.ch/file/b2AFY9...gdf.part04.rar
http://www.uploadable.ch/file/j5gFPX...gdf.part05.rar
http://www.uploadable.ch/file/UFxxJJ...gdf.part06.rar
http://www.uploadable.ch/file/KyFEQs...gdf.part07.rar
http://www.uploadable.ch/file/rgsy6N...gdf.part08.rar
http://www.uploadable.ch/file/ZFFKvy...gdf.part09.rar
http://www.uploadable.ch/file/8CRAJ2...gdf.part10.rar
http://www.uploadable.ch/file/sxwdjk...gdf.part11.rar
http://www.uploadable.ch/file/MjUgdZ...gdf.part12.rar
http://www.uploadable.ch/file/xwsFGg...gdf.part13.rar