http://www.imdb.com/title/tt1055369/

Titulo original Transformers: Revenge of the Fallen
Ano 2009
Duracion 150 min.
Pais Estados Unidos
Director Michael Bay
Guion Ehren Kruger (Historia: Alex Kurtzman, Roberto Orci)
Musica Steve Jablonsky
Fotografia Mitchell Amundsen
Reparto Shia LaBeouf, Megan Fox, Josh Duhamel, John Turturro, Tyrese Gibson, Isabel Lucas, Rainn Wilson, America Olivo, Kevin Dunn, Matthew Marsden, Julie White, John Benjamin Hickey, Ramon Rodriguez, Glenn Morshower
Productora DreamWorks SKG / Paramount Pictures
Genero Ciencia ficcion. Accion | Extraterrestres. Robots. Secuela
Sinopsis Han pasado dos anos desde que el joven Sam Witwicky (Shia LaBeouf) salvara al universo de una decisiva batalla entre dos razas de alienigenas roboticos en guerra. Pese a su extrema heroicidad, Sam sigue siendo un adolescente normal con las preocupaciones cotidianas de prepararse para ir a la universidad, dejando atras a su novia Mikaela (Megan Fox), y separandose por primera vez de sus padres. El objetivo de Sam es llevar una vida universitaria normal pero, para hacerlo, debera olvidar su destino. Mientras Sam ha hecho todo lo posible por dejar atras el conflicto de Mission City y volver a su rutina diaria, la batalla entre los Autobots y los Decepticons, aunque haya sido un incidente super secreto, ha provocado muchos cambios. El Sector 7 ha sido desmantelado y su soldado mas leal, el agente Simmons (John Turturro), despedido sumariamente. En su lugar se ha creado una nueva agencia, NEST. Empleando mandos con experiencia de campo como Lennox (Josh Duhamel) y Epps (Tyrese Gibson), NEST pretende trabajar codo con codo con los Autobots para evitar otra confrontacion mortal con los Decepticons. Por desgracia, un asesor de seguridad del gobierno, Theodore Galloway (John Benjamin Hickey) tiene muy poca prevision como para comprender totalmente los inexorables peligros que acechan. Dispuesto a hacerse con el control de todas las organizaciones de defensa, junto con su potencial de poder, y al mismo tiempo deshacerse de lo que el considera un frivolo gabinete gubernamental, Galloway se esfuerza por acabar con NEST, creyendo que toda amenaza de guerra ha desparecido hace tiempo.


Complete name : Transformers 2 La venganza de los caidos (2009) 1080p Dual.mkv
Format : Matroska
Format version : Version 2
File size : 3.52 GiB
Duration : 2h 30mn
Overall bit rate : 3 348 Kbps
Movie name : Transformers 2: Revenge of the Fallen [2009][1080p Dual]
Encoded date : UTC 2013-12-06 18:41:03
Writing application : mkvmerge v5.7.0 ('The Whirlwind') built on Jul 8 2012 20:08:51
Writing library : libebml v1.2.3 + libmatroska v1.3.0
Video
ID : 1
Format : AVC
Format/Info : Advanced Video Codec
Format profile : High@L4.1
Format settings, CABAC : Yes
Format settings, ReFrames : 2 frames
Muxing mode : Header stripping
Codec ID : V_MPEG4/ISO/AVC
Duration : 2h 30mn
Bit rate : 2 385 Kbps
Width : 1 920 pixels
Height : 1 080 pixels
Display aspect ratio : 16:9
Frame rate mode : Constant
Frame rate : 23.976 fps
Color space : YUV
Chroma subsampling : 4:2:0
Bit depth : 8 bits
Scan type : Progressive
Bits/(Pixel*Frame) : 0.048
Stream size : 2.51 GiB (71%)
Writing library : x264 core
Default : Yes
Forced : No
Color primaries : BT.709
Transfer characteristics : BT.709
Matrix coefficients : BT.709
Audio #1
ID : 2
Format : AC-3
Format/Info : Audio Coding 3
Mode extension : CM (complete main)
Format settings, Endianness : Big
Muxing mode : Header stripping
Codec ID : A_AC3
Duration : 2h 30mn
Bit rate mode : Constant
Bit rate : 448 Kbps
Channel count : 6 channels
Channel positions : Front: L C R, Side: L R, LFE
Sampling rate : 48.0 KHz
Bit depth : 16 bits
Compression mode : Lossy
Stream size : 482 MiB (13%)
Title : Espanol Latino
Default : Yes
Forced : No
Audio #2
ID : 3
Format : AC-3
Format/Info : Audio Coding 3
Mode extension : CM (complete main)
Format settings, Endianness : Big
Muxing mode : Header stripping
Codec ID : A_AC3
Duration : 2h 30mn
Bit rate mode : Constant
Bit rate : 448 Kbps
Channel count : 6 channels
Channel positions : Front: L C R, Side: L R, LFE
Sampling rate : 48.0 KHz
Bit depth : 16 bits
Compression mode : Lossy
Stream size : 482 MiB (13%)
Title : Ingles
Default : No
Forced : No
Text #1
ID : 4
Format : UTF-8
Codec ID : S_TEXT/UTF8
Codec ID/Info : UTF-8 Plain Text
Default : Yes
Forced : No
Text #2
ID : 5
Format : VobSub
Muxing mode : zlib
Codec ID : S_VOBSUB
Codec ID/Info : The same subtitle format used on DVDs
Title : Subtitulos Espanol
Default : No
Forced : No













http://www.uploadable.ch/file/cZkQbn...2hd.part01.rar
http://www.uploadable.ch/file/Yx29Rf...2hd.part02.rar
http://www.uploadable.ch/file/9qfEWH...2hd.part03.rar
http://www.uploadable.ch/file/mwaMYK...2hd.part04.rar
http://www.uploadable.ch/file/syaQD9...2hd.part05.rar
http://www.uploadable.ch/file/bBCVkv...2hd.part06.rar
http://www.uploadable.ch/file/VYBJhz...2hd.part07.rar
http://www.uploadable.ch/file/J5Av6H...2hd.part08.rar
http://www.uploadable.ch/file/ZZyBkS...2hd.part09.rar
http://www.uploadable.ch/file/x3RSWq...2hd.part10.rar
http://www.uploadable.ch/file/NtxY5c...2hd.part11.rar
http://www.uploadable.ch/file/NeN6Rd...2hd.part12.rar
http://www.uploadable.ch/file/jA8s2y...2hd.part13.rar
http://www.uploadable.ch/file/Bbuxhe...2hd.part14.rar
http://www.uploadable.ch/file/2hqGfY...2hd.part15.rar