http://www.imdb.com/title/tt0418279/

Titulo original Transformers
Ano 2007
Duracion 144 min.
Pais Estados Unidos
Director Michael Bay
Guion Alex Kurtzman, Roberto Orci (Historia: Alex Kurtzman, John Rogers, Roberto Orci)
Musica Steve Jablonsky
Fotografia Mitchell Amundsen
Reparto Shia LaBeouf, Megan Fox, Jon Voight, John Turturro, Josh Duhamel, Tyrese Gibson, Bernie Mac, Michael O'Neill, Julie White, Rachael Taylor, Kevin Dunn, Amaury Nolasco, Ronnie Sperling, Anthony Anderson, Brian Stepanek
Productora Paramount Pictures / DreamWorks Pictures / Hasbro
Genero Ciencia ficcion. Accion | Extraterrestres. Robots
Sinopsis Dos razas de robots extraterrestres transformables (los villanos "decepticons" y los amistosos "autobots") llegan a la Tierra en busca de una misteriosa fuente de poder. En la guerra que estalla entre las dos razas, los hombres toman partido por los "autobots". Sam Witwicky (Shia LaBeouf), un avispado adolescente, que solo desea conquistar a la bella Mikaela (Megan Fox), se convierte en la clave de una guerra que puede destruir a la humanidad


Complete name : Transformers (2007) 1080p Dual.mkv
Format : Matroska
Format version : Version 2
File size : 3.38 GiB
Duration : 2h 23mn
Overall bit rate : 3 375 Kbps
Movie name : Transformers [2007][1080p Dual]
Encoded date : UTC 2013-12-06 17:58:04
Writing application : mkvmerge v5.7.0 ('The Whirlwind') built on Jul 8 2012 20:08:51
Writing library : libebml v1.2.3 + libmatroska v1.3.0
Video
ID : 1
Format : AVC
Format/Info : Advanced Video Codec
Format profile : High@L4.1
Format settings, CABAC : Yes
Format settings, ReFrames : 2 frames
Muxing mode : Header stripping
Codec ID : V_MPEG4/ISO/AVC
Duration : 2h 23mn
Bit rate : 2 412 Kbps
Width : 1 920 pixels
Height : 1 080 pixels
Display aspect ratio : 16:9
Frame rate mode : Constant
Frame rate : 23.976 fps
Color space : YUV
Chroma subsampling : 4:2:0
Bit depth : 8 bits
Scan type : Progressive
Bits/(Pixel*Frame) : 0.049
Stream size : 2.42 GiB (71%)
Writing library : x264 core
Default : Yes
Forced : No
Color primaries : BT.709
Transfer characteristics : BT.709
Matrix coefficients : BT.709
Audio #1
ID : 2
Format : AC-3
Format/Info : Audio Coding 3
Mode extension : CM (complete main)
Format settings, Endianness : Big
Muxing mode : Header stripping
Codec ID : A_AC3
Duration : 2h 23mn
Bit rate mode : Constant
Bit rate : 448 Kbps
Channel count : 6 channels
Channel positions : Front: L C R, Side: L R, LFE
Sampling rate : 48.0 KHz
Bit depth : 16 bits
Compression mode : Lossy
Stream size : 460 MiB (13%)
Title : Espanol Latino
Default : Yes
Forced : No
Audio #2
ID : 3
Format : AC-3
Format/Info : Audio Coding 3
Mode extension : CM (complete main)
Format settings, Endianness : Big
Muxing mode : Header stripping
Codec ID : A_AC3
Duration : 2h 23mn
Bit rate mode : Constant
Bit rate : 448 Kbps
Channel count : 6 channels
Channel positions : Front: L C R, Side: L R, LFE
Sampling rate : 48.0 KHz
Bit depth : 16 bits
Compression mode : Lossy
Stream size : 460 MiB (13%)
Title : Ingles
Default : No
Forced : No
Text #1
ID : 4
Format : UTF-8
Codec ID : S_TEXT/UTF8
Codec ID/Info : UTF-8 Plain Text
Default : Yes
Forced : No
Text #2
ID : 5
Format : VobSub
Muxing mode : zlib
Codec ID : S_VOBSUB
Codec ID/Info : The same subtitle format used on DVDs
Title : Subtitulos Espanol
Default : No
Forced : No













http://www.uploadable.ch/file/G3VMKj...1hd.part01.rar
http://www.uploadable.ch/file/6fSnTX...1hd.part02.rar
http://www.uploadable.ch/file/gVG4C2...1hd.part03.rar
http://www.uploadable.ch/file/huAkpV...1hd.part04.rar
http://www.uploadable.ch/file/nBejsy...1hd.part05.rar
http://www.uploadable.ch/file/m4TJKA...1hd.part06.rar
http://www.uploadable.ch/file/QS3XKh...1hd.part07.rar
http://www.uploadable.ch/file/A6tFwP...1hd.part08.rar
http://www.uploadable.ch/file/yCVYuM...1hd.part09.rar
http://www.uploadable.ch/file/Qm6FUT...1hd.part10.rar
http://www.uploadable.ch/file/UjF9pj...1hd.part11.rar
http://www.uploadable.ch/file/e6NzuD...1hd.part12.rar
http://www.uploadable.ch/file/ZAJ284...1hd.part13.rar
http://www.uploadable.ch/file/h22RXA...1hd.part14.rar