http://www.imdb.com/title/tt0099785/

Titulo original Home Alone
Ano 1990
Duracion 100 min.
Pais Estados Unidos
Director Chris Columbus
Guion John Hughes
Musica John Williams
Fotografia Julio Macat
Reparto Macaulay Culkin, Joe Pesci, Daniel Stern, John Heard, Roberts Blossom, Catherine O'Hara, John Candy, Angela Goethals, Devin Ratray
Productora 20th Century Fox
Genero Comedia. Infantil | Navidad. Cine familiar
Sinopsis Kevin McAllister es un nino de ocho anos, miembro de una familia numerosa, que accidentalmente se queda abandonado en su casa cuando toda la familia se marcha a pasar las vacaciones a Francia. Kevin aprende a valerse por si mismo e incluso a protegerse de Harry y Marv, dos bribones que se proponen asaltar todas las casas cerradas de su vecindario. en cuanto su madre lo echa en falta, regresa apresuradamente a Chicago para recuperar a su hijo.


Format : Matroska
Format version : Version 4 / Version 2
File size : 2.51 GiB
Duration : 1h 42mn
Overall bit rate : 3 489 Kbps
Movie name : Home Alone (1990) [FULL 1080p Dual]
Encoded date : UTC 2013-11-24 16:37:39
Writing application : mkvmerge v6.0.0 ('Coming Up For Air') built on Jan 20 2013 09:52:00
Writing library : libebml v1.3.0 + libmatroska v1.4.0
Video
ID : 1
Format : AVC
Format/Info : Advanced Video Codec
Format profile : Main@L4.0
Format settings, CABAC : Yes
Format settings, ReFrames : 4 frames
Codec ID : V_MPEG4/ISO/AVC
Duration : 1h 42mn
Bit rate : 3 000 Kbps
Width : 1 920 pixels
Height : 1 080 pixels
Display aspect ratio : 16:9
Frame rate mode : Constant
Frame rate : 23.976 fps
Color space : YUV
Chroma subsampling : 4:2:0
Bit depth : 8 bits
Scan type : Progressive
Bits/(Pixel*Frame) : 0.060
Stream size : 2.09 GiB (83%)
Writing library : x264 core 130 r2273 b3065e6
Default : Yes
Forced : No
Color primaries : BT.709
Transfer characteristics : BT.709
Matrix coefficients : BT.709
Audio #1
ID : 2
Format : AC-3
Format/Info : Audio Coding 3
Format profile : Dolby Digital
Mode extension : CM (complete main)
Format settings, Endianness : Big
Codec ID : A_AC3
Duration : 1h 42mn
Bit rate mode : Constant
Bit rate : 192 Kbps
Channel count : 2 channels
Channel positions : Front: L R
Sampling rate : 48.0 KHz
Bit depth : 16 bits
Compression mode : Lossy
Delay relative to video : 500ms
Stream size : 141 MiB (6%)
Title : Audio Latino
Default : Yes
Forced : No
Audio #2
ID : 3
Format : AC-3
Format/Info : Audio Coding 3
Mode extension : CM (complete main)
Format settings, Endianness : Big
Codec ID : A_AC3
Duration : 1h 42mn
Bit rate mode : Constant
Bit rate : 320 Kbps
Channel count : 6 channels
Channel positions : Front: L C R, Side: L R, LFE
Sampling rate : 44.1 KHz
Bit depth : 16 bits
Compression mode : Lossy
Stream size : 236 MiB (9%)
Title : Audio Ingles
Default : No
Forced : No
Text #1
ID : 4
Format : UTF-8
Codec ID : S_TEXT/UTF8
Codec ID/Info : UTF-8 Plain Text
Title : Subtitulos Latino
Default : No
Forced : No
Text #2
ID : 5
Format : UTF-8
Codec ID : S_TEXT/UTF8
Codec ID/Info : UTF-8 Plain Text
Title : Subtitulos Ingles
Default : No
Forced : No
Text #3
ID : 6
Format : UTF-8
Codec ID : S_TEXT/UTF8
Codec ID/Info : UTF-8 Plain Text
Default : Yes
Forced : No













http://www.uploadable.ch/file/wpnqe5...1hd.part01.rar
http://www.uploadable.ch/file/JySy5t...1hd.part02.rar
http://www.uploadable.ch/file/Y5Vnmv...1hd.part03.rar
http://www.uploadable.ch/file/PnfnUF...1hd.part04.rar
http://www.uploadable.ch/file/MawaVJ...1hd.part05.rar
http://www.uploadable.ch/file/VdUW46...1hd.part06.rar
http://www.uploadable.ch/file/z6gDfE...1hd.part07.rar
http://www.uploadable.ch/file/7Q2Hj2...1hd.part08.rar
http://www.uploadable.ch/file/GYbXtK...1hd.part09.rar
http://www.uploadable.ch/file/KNK2HV...1hd.part10.rar
http://www.uploadable.ch/file/3tH3Zv...1hd.part11.rar