http://www.imdb.com/title/tt2023587/

Titulo original Mama
Ano 2013
Duracion 100 min.
Pais Canada'
Director Andres Muschietti
Guion Andres Muschietti, Neil Cross, Barbara Muschietti (Historia: Andres Muschietti, Barbara Muschietti)
Musica Fernando Velazquez
Fotografia Antonio Riestra
Reparto Jessica Chastain, Nikolaj Coster-Waldau, Megan Charpentier, Isabelle Nelisse, Daniel Kash, Javier Botet, Jane Moffat, Morgan McGarry, David Fox, Dominic Cuzzocrea
Productora Coproduccion Canada'-Espana; De Milo / Toma 78
Genero Terror. Thriller | Sobrenatural. Fantasmas
Sinopsis Hace cinco anos, el mismo dia en que su madre fue asesinada, las pequenas Victoria y Lilly desaparecieron en el bosque. Buscadas incansablemente por su tio Lucas (Nikolai Coster-Waldau) y su novia Annabel (Jessica Chastain), son encontradas unos anos mas tarde en una cabana en medio de la naturaleza, donde han vivido aisladas de toda civilizacion. Comienzan entonces una nueva vida para las ninas de la mano de Lucas y Annabel, pero estos pronto descubren que alguien o algo misterioso las sigue arropando por las noches


Complete name : Mama (2013) 1080p Dual.mkv
Format : Matroska
Format version : Version 4 / Version 2
File size : 2.55 GiB
Duration : 1h 40mn
Overall bit rate : 3 650 Kbps
Movie name : Mama [2013][1080p Dual]
Encoded date : UTC 2013-11-25 04:15:26
Writing application : mkvmerge v6.0.0 ('Coming Up For Air') built on Jan 20 2013 09:52:00
Writing library : libebml v1.3.0 + libmatroska v1.4.0
Video
ID : 1
Format : AVC
Format/Info : Advanced Video Codec
Format profile : Main@L4.0
Format settings, CABAC : Yes
Format settings, ReFrames : 4 frames
Codec ID : V_MPEG4/ISO/AVC
Duration : 1h 40mn
Bit rate : 2 500 Kbps
Width : 1 920 pixels
Height : 1 080 pixels
Display aspect ratio : 16:9
Frame rate mode : Constant
Frame rate : 23.976 fps
Color space : YUV
Chroma subsampling : 4:2:0
Bit depth : 8 bits
Scan type : Progressive
Bits/(Pixel*Frame) : 0.050
Stream size : 1.70 GiB (66%)
Writing library : x264 core 130 r2273 b3065e6
Default : Yes
Forced : No
Color primaries : BT.709
Transfer characteristics : BT.709
Matrix coefficients : BT.709
Audio #1
ID : 2
Format : AC-3
Format/Info : Audio Coding 3
Mode extension : CM (complete main)
Format settings, Endianness : Big
Codec ID : A_AC3
Duration : 1h 40mn
Bit rate mode : Constant
Bit rate : 640 Kbps
Channel count : 6 channels
Channel positions : Front: L C R, Side: L R, LFE
Sampling rate : 48.0 KHz
Bit depth : 16 bits
Compression mode : Lossy
Delay relative to video : 224ms
Stream size : 458 MiB (18%)
Title : Espanol Latino
Default : Yes
Forced : No
Audio #2
ID : 3
Format : AC-3
Format/Info : Audio Coding 3
Mode extension : CM (complete main)
Format settings, Endianness : Big
Codec ID : A_AC3
Duration : 1h 40mn
Bit rate mode : Constant
Bit rate : 512 Kbps
Channel count : 6 channels
Channel positions : Front: L C R, Side: L R, LFE
Sampling rate : 48.0 KHz
Bit depth : 16 bits
Compression mode : Lossy
Stream size : 367 MiB (14%)
Title : Ingles
Default : No
Forced : No
Text #1
ID : 4
Format : UTF-8
Codec ID : S_TEXT/UTF8
Codec ID/Info : UTF-8 Plain Text
Default : Yes
Forced : No
Text #2
ID : 5
Format : UTF-8
Codec ID : S_TEXT/UTF8
Codec ID/Info : UTF-8 Plain Text
Title : Subtitulos Espanol
Default : No
Forced : No













http://www.uploadable.ch/file/cdbTs9...ahd.part01.rar
http://www.uploadable.ch/file/uWH7RG...ahd.part02.rar
http://www.uploadable.ch/file/nU2gWu...ahd.part03.rar
http://www.uploadable.ch/file/D4Yqzr...ahd.part04.rar
http://www.uploadable.ch/file/cvJWWt...ahd.part05.rar
http://www.uploadable.ch/file/PmJSf9...ahd.part06.rar
http://www.uploadable.ch/file/qGe2NA...ahd.part07.rar
http://www.uploadable.ch/file/FCdtsE...ahd.part08.rar
http://www.uploadable.ch/file/hk3hEk...ahd.part09.rar
http://www.uploadable.ch/file/3VGUfB...ahd.part10.rar