http://www.imdb.com/title/tt2268419/

Titulo original Dead in Tombstone
Ano 2012
Duracion 100 min.
Pais Estados Unidos
Director Roel Reine
Guion Brendan Cowles, Shane Kuhn
Musica Hybrid
Fotografia Roel Reine
Reparto Danny Trejo, Anthony Michael Hall, Mickey Rourke, Dina Meyer, Richard Dillane, Catalina Grama, Colin Mace, Ovidiu Niculescu, Ronan Summers, Edward Akrout, Radu Micu, James Jordan, Daniel Lapaine
Productora Universal 1440 Entertainment / CC Capital Arts Entertainment SRL
Genero Western. Accion. Fantastico
Sinopsis Guerrero Hernandez (Trejo) es el lider indiscutible de los Blackwater Gang. Tras sacar a su hermanastro Red de la carcel, su plan es saquear la poblacion minera de Edendale, pero es asesinado por el traicionero Red. Despues de hacer un trato con el diablo, Guerrero regresa a la vida para vengarse. Las calles del pueblo, que ahora se llama Tombstone, no tardaran en convertirse en rios de sangre.


Format : Matroska
Format version : Version 4 / Version 2
File size : 2.46 GiB
Duration : 1h 39mn
Overall bit rate : 3 531 Kbps
Movie name : Dead of Tombstone (2012) [1080p Dual]
Encoded date : UTC 2013-09-30 02:47:02
Writing application : mkvmerge v6.0.0 ('Coming Up For Air') built on Jan 20 2013 09:52:00
Writing library : libebml v1.3.0 + libmatroska v1.4.0
Video
ID : 1
Format : AVC
Format/Info : Advanced Video Codec
Format profile : High@L4.0
Format settings, CABAC : Yes
Format settings, ReFrames : 4 frames
Codec ID : V_MPEG4/ISO/AVC
Duration : 1h 39mn
Bit rate : 2 500 Kbps
Width : 1 920 pixels
Height : 1 080 pixels
Display aspect ratio : 16:9
Frame rate mode : Constant
Frame rate : 23.976 fps
Color space : YUV
Chroma subsampling : 4:2:0
Bit depth : 8 bits
Scan type : Progressive
Bits/(Pixel*Frame) : 0.050
Stream size : 1.70 GiB (69%)
Writing library : x264 core 133 r2334 a3ac64b
Default : Yes
Forced : No
Audio #1
ID : 2
Format : DTS
Format/Info : Digital Theater Systems
Mode : 16
Format settings, Endianness : Big
Codec ID : A_DTS
Duration : 1h 39mn
Bit rate mode : Constant
Bit rate : 768 Kbps
Channel count : 6 channels
Channel positions : Front: L C R, Side: L R, LFE
Sampling rate : 48.0 KHz
Bit depth : 24 bits
Compression mode : Lossy
Stream size : 549 MiB (22%)
Title : Espanol Latino
Default : Yes
Forced : No
Audio #2
ID : 3
Format : AC-3
Format/Info : Audio Coding 3
Mode extension : CM (complete main)
Format settings, Endianness : Big
Codec ID : A_AC3
Duration : 1h 39mn
Bit rate mode : Constant
Bit rate : 256 Kbps
Channel count : 6 channels
Channel positions : Front: L C R, Side: L R, LFE
Sampling rate : 44.1 KHz
Bit depth : 16 bits
Compression mode : Lossy
Stream size : 183 MiB (7%)
Title : Ingles
Default : No
Forced : No
Text #1
ID : 4
Format : PGS
Muxing mode : zlib
Codec ID : S_HDMV/PGS
Codec ID/Info : The same subtitle format used on BDs/HD-DVDs
Title : Subtitulos Espanol
Default : No
Forced : No
Text #2
ID : 5
Format : UTF-8
Codec ID : S_TEXT/UTF8
Codec ID/Info : UTF-8 Plain Text
Default : Yes
Forced : No











http://www.uploadable.ch/file/n8aU6X...mhd.part01.rar
http://www.uploadable.ch/file/tKJNBY...mhd.part02.rar
http://www.uploadable.ch/file/R6swM4...mhd.part03.rar
http://www.uploadable.ch/file/e36NzK...mhd.part04.rar
http://www.uploadable.ch/file/HZrbrq...mhd.part05.rar
http://www.uploadable.ch/file/m25UnE...mhd.part06.rar
http://www.uploadable.ch/file/PfecxR...mhd.part07.rar
http://www.uploadable.ch/file/Pqh3zT...mhd.part08.rar
http://www.uploadable.ch/file/4s9jXB...mhd.part09.rar
http://www.uploadable.ch/file/3CzJYD...mhd.part10.rar