http://www.imdb.com/title/tt0099653/

Titulo original Ghost
Ano 1990
Duracion 105 min.
Pais Estados Unidos
Director Jerry Zucker
Guion Bruce Joel Rubin
Musica Maurice Jarre
Fotografia Adam Greenberg
Reparto Demi Moore, Patrick Swayze, Whoopi Goldberg, Tony Goldwyn, Rick Aviles, Vincent Schiavelli, Vivian Bonnell, Phil Leeds, Angelina Estrada
Productora Paramount Pictures
Genero Romance. Drama. Fantastico | Drama romantico. Fantasmas. Sobrenatural
Sinopsis Una pareja de enamorados ve truncada su felicidad cuando el es asesinado por un ladron. La necesidad de salvar la vida a la chica hace que el permanezca en la Tierra en forma de fantasma, e intente advertirla del peligro que corre. Su unico medio de comunicacion es una alocada vidente.


Complete name : Ghost (1990) 1080p Dual.mkv
Format : Matroska
Format version : Version 4 / Version 2
File size : 2.94 GiB
Duration : 2h 6mn
Overall bit rate : 3 326 Kbps
Movie name : Ghost [1990][1080p Dual]
Encoded date : UTC 2013-11-22 01:27:58
Writing application : mkvmerge v6.0.0 ('Coming Up For Air') built on Jan 20 2013 09:52:00
Writing library : libebml v1.3.0 + libmatroska v1.4.0
Video
ID : 1
Format : AVC
Format/Info : Advanced Video Codec
Format profile : High@L4.0
Format settings, CABAC : Yes
Format settings, ReFrames : 4 frames
Codec ID : V_MPEG4/ISO/AVC
Duration : 2h 6mn
Bit rate : 2 428 Kbps
Width : 1 920 pixels
Height : 1 080 pixels
Display aspect ratio : 16:9
Frame rate mode : Constant
Frame rate : 23.976 fps
Color space : YUV
Chroma subsampling : 4:2:0
Bit depth : 8 bits
Scan type : Progressive
Bits/(Pixel*Frame) : 0.049
Stream size : 2.09 GiB (71%)
Writing library : x264 core 133 r2334 a3ac64b
Default : Yes
Forced : No
Audio #1
ID : 2
Format : AC-3
Format/Info : Audio Coding 3
Mode extension : CM (complete main)
Format settings, Endianness : Big
Codec ID : A_AC3
Duration : 2h 6mn
Bit rate mode : Constant
Bit rate : 448 Kbps
Channel count : 6 channels
Channel positions : Front: L C R, Side: L R, LFE
Sampling rate : 48.0 KHz
Bit depth : 16 bits
Compression mode : Lossy
Stream size : 406 MiB (13%)
Title : Espanol Latino
Default : Yes
Forced : No
Audio #2
ID : 3
Format : AC-3
Format/Info : Audio Coding 3
Mode extension : CM (complete main)
Format settings, Endianness : Big
Codec ID : A_AC3
Duration : 2h 6mn
Bit rate mode : Constant
Bit rate : 448 Kbps
Channel count : 6 channels
Channel positions : Front: L C R, Side: L R, LFE
Sampling rate : 48.0 KHz
Bit depth : 16 bits
Compression mode : Lossy
Stream size : 406 MiB (13%)
Title : Ingles
Default : No
Forced : No
Text #1
ID : 4
Format : UTF-8
Codec ID : S_TEXT/UTF8
Codec ID/Info : UTF-8 Plain Text
Default : Yes
Forced : No
Text #2
ID : 5
Format : UTF-8
Codec ID : S_TEXT/UTF8
Codec ID/Info : UTF-8 Plain Text
Title : Subtitulos Espanol
Default : No
Forced : No











http://www.uploadable.ch/file/K9ybRq...ghd.part01.rar
http://www.uploadable.ch/file/MXCanZ...ghd.part02.rar
http://www.uploadable.ch/file/EXtc7j...ghd.part03.rar
http://www.uploadable.ch/file/uZdT9J...ghd.part04.rar
http://www.uploadable.ch/file/W4kJw9...ghd.part05.rar
http://www.uploadable.ch/file/zuBNyr...ghd.part06.rar
http://www.uploadable.ch/file/ch9DWA...ghd.part07.rar
http://www.uploadable.ch/file/Hvkjdx...ghd.part08.rar
http://www.uploadable.ch/file/xS95tr...ghd.part09.rar
http://www.uploadable.ch/file/QyGVtN...ghd.part10.rar
http://www.uploadable.ch/file/P7A4yY...ghd.part11.rar
http://www.uploadable.ch/file/ypSe5a...ghd.part12.rar