http://www.imdb.com/title/tt0449088/

Titulo original Pirates of the Caribbean: Dead Mans Chest (Pirates of the Caribbean 2)
Ano 2006
Duracion 151 min.
Pais Estados Unidos
Director Gore Verbinski
Guion Ted Elliott, Terry Rossio (Personajes: Ted Elliott, Terry Rossio, Stuart Beattie, Jay Wolpert)
Musica Hans Zimmer
Fotografia Dariusz Wolski
Reparto Johnny Depp, Orlando Bloom, Keira Knightley, Bill Nighy, Jack Davenport, Kevin McNally, Lee Arenberg, Mackenzie Crook, Stellan Skarsgård, Tom Hollander, Naomie Harris, Jonathan Pryce, Martin Klebba, David Bailie, Geoffrey Rush
Productora Walt Disney Pictures / Jerry Bruckheimer Films
Genero Aventuras. Fantastico. Accion. Comedia | Piratas. Aventuras marinas. Monstruos. Capa y espada. Secuela
Sinopsis Will Turner y Elizabeth Swann se van a casar, pero ambos son hechos prisioneros por Lord Cutler Beckett y acusados de haber liberado al capitan Jack Sparrow. Para salvar su vida Will tendra que encontrar a Jack y conseguir su misteriosa brujula, que esconde un gran poder ademas de la clave de una deuda de sangre del pirata con un temible y siniestro Davy Jones, el legendario capitan del barco fantasma El Holandes Errante.


Complete name : Piratas Del Caribe 2 (2006) 1080p Dual.mkv
Format : Matroska
Format version : Version 4 / Version 2
File size : 3.30 GiB
Duration : 2h 30mn
Overall bit rate : 3 133 Kbps
Movie name : Pirates of the Caribbean: Dead Man's Chest [2006][1080p Dual]
Encoded date : UTC 2013-11-12 22:02:17
Writing application : mkvmerge v6.4.1 ('Omega Point') built on Sep 16 2013 22:05:10
Writing library : libebml v1.3.0 + libmatroska v1.4.1
Video
ID : 1
Format : AVC
Format/Info : Advanced Video Codec
Format profile : High@L4.0
Format settings, CABAC : Yes
Format settings, ReFrames : 4 frames
Codec ID : V_MPEG4/ISO/AVC
Duration : 2h 30mn
Bit rate : 2 299 Kbps
Width : 1 920 pixels
Height : 1 080 pixels
Display aspect ratio : 16:9
Frame rate mode : Constant
Frame rate : 23.976 fps
Color space : YUV
Chroma subsampling : 4:2:0
Bit depth : 8 bits
Scan type : Progressive
Bits/(Pixel*Frame) : 0.046
Stream size : 2.36 GiB (71%)
Writing library : x264 core 133 r2334 a3ac64b
Default : Yes
Forced : No
Audio #1
ID : 2
Format : AC-3
Format/Info : Audio Coding 3
Mode extension : CM (complete main)
Format settings, Endianness : Big
Codec ID : A_AC3
Duration : 2h 30mn
Bit rate mode : Constant
Bit rate : 448 Kbps
Channel count : 6 channels
Channel positions : Front: L C R, Side: L R, LFE
Sampling rate : 48.0 KHz
Bit depth : 16 bits
Compression mode : Lossy
Stream size : 483 MiB (14%)
Title : Espanol Latino
Default : Yes
Forced : No
Audio #2
ID : 3
Format : AC-3
Format/Info : Audio Coding 3
Mode extension : CM (complete main)
Format settings, Endianness : Big
Codec ID : A_AC3
Duration : 2h 30mn
Bit rate mode : Constant
Bit rate : 384 Kbps
Channel count : 6 channels
Channel positions : Front: L C R, Side: L R, LFE
Sampling rate : 48.0 KHz
Bit depth : 16 bits
Compression mode : Lossy
Stream size : 414 MiB (12%)
Title : Ingles
Default : No
Forced : No
Text #1
ID : 4
Format : UTF-8
Codec ID : S_TEXT/UTF8
Codec ID/Info : UTF-8 Plain Text
Default : Yes
Forced : No
Text #2
ID : 5
Format : UTF-8
Codec ID : S_TEXT/UTF8
Codec ID/Info : UTF-8 Plain Text
Title : Subtitulos Espanol
Default : No
Forced : No











http://www.uploadable.ch/file/Jqptpp...2hd.part01.rar
http://www.uploadable.ch/file/KVquPE...2hd.part02.rar
http://www.uploadable.ch/file/pqFGdq...2hd.part03.rar
http://www.uploadable.ch/file/g7Kytd...2hd.part04.rar
http://www.uploadable.ch/file/MGYz2G...2hd.part05.rar
http://www.uploadable.ch/file/RVZbmu...2hd.part06.rar
http://www.uploadable.ch/file/kzdxTE...2hd.part07.rar
http://www.uploadable.ch/file/NVZFsq...2hd.part08.rar
http://www.uploadable.ch/file/nZPq7r...2hd.part09.rar
http://www.uploadable.ch/file/aUFeXw...2hd.part10.rar
http://www.uploadable.ch/file/SDDaDr...2hd.part11.rar
http://www.uploadable.ch/file/Twpnch...2hd.part12.rar
http://www.uploadable.ch/file/UqtyT6...2hd.part13.rar
http://www.uploadable.ch/file/4vQbWv...2hd.part14.rar