http://www.imdb.com/title/tt0120855/

Titulo original Tarzan
Ano 1999
Duracion 84 min.
Pais Estados Unidos
Director Kevin Lima, Chris Buck
Guion Tab Murphy (Personaje: Edgar Rice Borroughs)
Musica Mark Mancina (Canciones: Phil Collins)
Fotografia Animation
Reparto Animation
Productora Walt Disney Pictures / Edgar Rice Burroughs Inc.
Genero Animacion. Aventuras. Drama | Tarzan
Sinopsis Cuando Kala, una gorila hembra, encuentra un nino huerfano en la jungla, decide adoptarlo como su propio hijo a pesar de la oposicion de Kerchak, el jefe de la manada. Junto a Terk, un gracioso mono y Tantor, un elefante algo neurotico, Tazan crecera en la jungla desarrollando los instintos de los animales y aprendiendo a deslizarse entre los arboles a velocidad de vertigo. Pero cuando una expedicion se adentra en la jungla y Tarzan conoce a Jane, descubrira quien es realmente y cual es el mundo al que pertenece.


Complete name : Tarzan (1999) 1080p Dual.mkv
Format : Matroska
Format version : Version 4 / Version 2
File size : 2.36 GiB
Duration : 1h 31mn
Overall bit rate : 3 684 Kbps
Movie name : Tarzan [1999][1080p Dual]
Encoded date : UTC 2013-10-30 21:17:46
Writing application : mkvmerge v6.4.1 ('Omega Point') built on Sep 16 2013 22:05:10
Writing library : libebml v1.3.0 + libmatroska v1.4.1
Video
ID : 1
Format : AVC
Format/Info : Advanced Video Codec
Format profile : High@L4.0
Format settings, CABAC : Yes
Format settings, ReFrames : 4 frames
Codec ID : V_MPEG4/ISO/AVC
Duration : 1h 31mn
Bit rate : 2 650 Kbps
Nominal bit rate : 2 849 Kbps
Width : 1 920 pixels
Height : 1 080 pixels
Display aspect ratio : 16:9
Frame rate mode : Constant
Frame rate : 23.976 fps
Color space : YUV
Chroma subsampling : 4:2:0
Bit depth : 8 bits
Scan type : Progressive
Bits/(Pixel*Frame) : 0.053
Stream size : 1.70 GiB (72%)
Writing library : x264 core 133 r2334 a3ac64b
Default : Yes
Forced : No
Audio #1
ID : 2
Format : AC-3
Format/Info : Audio Coding 3
Mode extension : CM (complete main)
Format settings, Endianness : Big
Codec ID : A_AC3
Duration : 1h 31mn
Bit rate mode : Constant
Bit rate : 512 Kbps
Channel count : 2 channels
Channel positions : Front: L R
Sampling rate : 48.0 KHz
Bit depth : 16 bits
Compression mode : Lossy
Stream size : 336 MiB (14%)
Title : Espanol Latino
Default : Yes
Forced : No
Audio #2
ID : 3
Format : AC-3
Format/Info : Audio Coding 3
Mode extension : CM (complete main)
Format settings, Endianness : Big
Codec ID : A_AC3
Duration : 1h 31mn
Bit rate mode : Constant
Bit rate : 448 Kbps
Channel count : 6 channels
Channel positions : Front: L C R, Side: L R, LFE
Sampling rate : 48.0 KHz
Bit depth : 16 bits
Compression mode : Lossy
Stream size : 294 MiB (12%)
Title : Ingles
Default : No
Forced : No
Text #1
ID : 4
Format : UTF-8
Codec ID : S_TEXT/UTF8
Codec ID/Info : UTF-8 Plain Text
Default : Yes
Forced : No
Text #2
ID : 5
Format : UTF-8
Codec ID : S_TEXT/UTF8
Codec ID/Info : UTF-8 Plain Text
Title : Subtitulos Espanol
Default : No
Forced : No











http://www.uploadable.ch/file/uhvgAb...9hd.part01.rar
http://www.uploadable.ch/file/25VZEx...9hd.part02.rar
http://www.uploadable.ch/file/PftF5T...9hd.part03.rar
http://www.uploadable.ch/file/wrt7Bx...9hd.part04.rar
http://www.uploadable.ch/file/Ausr7W...9hd.part05.rar
http://www.uploadable.ch/file/Spd5YN...9hd.part06.rar
http://www.uploadable.ch/file/3Jpy9m...9hd.part07.rar
http://www.uploadable.ch/file/XVZYmu...9hd.part08.rar
http://www.uploadable.ch/file/y7kccJ...9hd.part09.rar
http://www.uploadable.ch/file/Av7xEh...9hd.part10.rar