http://www.imdb.com/title/tt0067065/

Titulo original Escape From The Planet of The Apes
Ano 1971
Duracion 97 min.
Pais Estados Unidos
Director Don Taylor
Guion Paul Dehn
Musica Jerry Goldsmith
Fotografia Joseph Biroc
Reparto Roddy McDowall, Kim Hunter, Bradford Dillman, Ricardo Montalban, Natalie Trundy, Sal Mineo, Albert Salmi, M. Emmet Walsh
Productora 20th Century Fox
Genero Ciencia ficcion. Fantastico. Aventuras | Secuela. Simios. Futuro postapocaliptico
Sinopsis Tres simios, la doctora Zira, Cornelius y el doctor Milo, han conseguido sobrevivir al desastre nuclear que ha destruido su planeta y, tras reparar la nave de los seres humanos, viajan a traves del tiempo hasta aterrizar en la Tierra a finales del siglo XX. Mientras son objeto de estudio en un centro de investigacion para determinar su nivel de inteligencia, se niegan a revelar sus conocimientos sobre la civilizacion humana.


Format : Matroska
Format version : Version 4 / Version 2
File size : 2.68 GiB
Duration : 1h 37mn
Overall bit rate : 3 937 Kbps
Movie name : Huida del Planeta de Los Simios (1971) FULL 1080p
Encoded date : UTC 2014-04-22 21:19:28
Writing application : mkvmerge v6.5.0 ('Isn't she lovely') built on Oct 20 2013 12:50:05
Writing library : libebml v1.3.0 + libmatroska v1.4.1
Video
ID : 1
Format : AVC
Format/Info : Advanced Video Codec
Format profile : Main@L4.0
Format settings, CABAC : Yes
Format settings, ReFrames : 4 frames
Codec ID : V_MPEG4/ISO/AVC
Duration : 1h 37mn
Bit rate : 3 000 Kbps
Width : 1 920 pixels
Height : 1 080 pixels
Display aspect ratio : 16:9
Frame rate mode : Constant
Frame rate : 23.976 fps
Color space : YUV
Chroma subsampling : 4:2:0
Bit depth : 8 bits
Scan type : Progressive
Bits/(Pixel*Frame) : 0.060
Stream size : 2.02 GiB (75%)
Title : WwW.CinemaniaHD.org
Writing library : x264 core 130 r2273 b3065e6
Default : Yes
Forced : No
Color primaries : BT.709
Transfer characteristics : BT.709
Matrix coefficients : BT.709
Audio #1
ID : 2
Format : AC-3
Format/Info : Audio Coding 3
Mode extension : CM (complete main)
Format settings, Endianness : Big
Codec ID : A_AC3
Duration : 1h 37mn
Bit rate mode : Constant
Bit rate : 448 Kbps
Channel count : 2 channels
Channel positions : Front: L R
Sampling rate : 48.0 KHz
Bit depth : 16 bits
Compression mode : Lossy
Stream size : 313 MiB (11%)
Title : Audio Latino
Language : Spanish
Default : Yes
Forced : No
Audio #2
ID : 3
Format : AC-3
Format/Info : Audio Coding 3
Mode extension : CM (complete main)
Format settings, Endianness : Big
Codec ID : A_AC3
Duration : 1h 37mn
Bit rate mode : Constant
Bit rate : 448 Kbps
Channel count : 6 channels
Channel positions : Front: L C R, Side: L R, LFE
Sampling rate : 48.0 KHz
Bit depth : 16 bits
Compression mode : Lossy
Stream size : 313 MiB (11%)
Title : Audio Ingles
Language : English
Default : No
Forced : No
Text #1
ID : 4
Format : UTF-8
Codec ID : S_TEXT/UTF8
Codec ID/Info : UTF-8 Plain Text
Default : Yes
Forced : No
Text #2
ID : 5
Format : PGS
Muxing mode : zlib
Codec ID : S_HDMV/PGS
Codec ID/Info : The same subtitle format used on BDs/HD-DVDs
Title : Subtitulos Latino
Language : Spanish
Default : No
Forced : No
Text #3
ID : 6
Format : PGS
Muxing mode : zlib
Codec ID : S_HDMV/PGS
Codec ID/Info : The same subtitle format used on BDs/HD-DVDs
Title : Subtitulos Ingles
Language : English
Default : No
Forced : No











http://www.uploadable.ch/file/dK9Xne...dd3.part01.rar
http://www.uploadable.ch/file/nCC7MZ...dd3.part02.rar
http://www.uploadable.ch/file/MtYzWA...dd3.part03.rar
http://www.uploadable.ch/file/CzDGxV...dd3.part04.rar
http://www.uploadable.ch/file/6sY6KM...dd3.part05.rar
http://www.uploadable.ch/file/SeChHT...dd3.part06.rar
http://www.uploadable.ch/file/AkxAYv...dd3.part07.rar
http://www.uploadable.ch/file/8DYMuz...dd3.part08.rar
http://www.uploadable.ch/file/36kqvz...dd3.part09.rar
http://www.uploadable.ch/file/Y2FJAB...dd3.part10.rar
http://www.uploadable.ch/file/8YYFj5...dd3.part11.rar